#TITLE:come;
#SUBTITLE:;
#ARTIST:Unknown artist;
#TITLETRANSLIT:;
#SUBTITLETRANSLIT:;
#ARTISTTRANSLIT:;
#CREDIT:YamiRyou;
#BANNER:banner.jpg;
#BACKGROUND:backgroud.jpg;
#LYRICSPATH:;
#CDTITLE:;
#MUSIC:come.mp3;
#OFFSET:0.005;
#SAMPLESTART:100.000;
#SAMPLELENGTH:12.000;
#SELECTABLE:YES;
#BPMS:0.000=196.840,498.250=232.720;
#STOPS:271.750=0.700
,498.250=0.260
;
#BGCHANGES:;
// cache tags:
#FIRSTBEAT:1.500;
#LASTBEAT:599.667;
#SONGFILENAME:Songs/nhac/come/come.sm;
#HASMUSIC:1;
#HASBANNER:1;
#MUSICLENGTH:179.983;
// end cache tags

//---------------dance-single - ----------------
#NOTES:
     dance-single:
     :
     Challenge:
     13:
     1.000,1.000,1.000,0.556,1.000,1508.000,379.000,100.000,0.000,42.000:
0000
0000
0000
0000
0000
0000
0000
0000
0000
0100
0000
0000
0000
0000
1010
0000
0000
0000
0000
0000
0000
0000
0000
2002
,
0000
0000
0000
0000
0000
0000
0000
0000
0000
0000
0000
0000
0000
0000
0000
0000
0000
3003
0010
0000
0000
0000
0000
0000
,
0000
0101
0000
0000
0000
0000
0000
0000
1010
0000
0000
0000
0101
0000
0000
0000
0000
0000
0000
0000
1010
0000
0000
0000
,
0000
0000
0000
0000
0000
0000
0000
2002
0000
0000
0000
0000
0000
0000
0000
0000
0000
0000
0000
0000
0000
0000
0000
0000
,
0000
0000
0000
0000
,
3003
0101
0000
0000
1010
0000
0000
2002
0000
0000
0000
0000
,
0000
0000
0000
0000
0000
0000
0000
0000
0000
3003
0010
0000
0000
0000
0000
0000
0000
0000
0000
0101
0000
0000
0000
0000
,
0000
0000
0000
0010
0000
0000
0000
0101
0000
0000
0000
0000
0000
0000
1010
0000
0000
0000
0000
0000
0000
0000
0000
0000
,
0000
2002
0000
0000
0000
0000
0000
0000
,
0000
0000
0000
0000
,
0000
0000
0000
0000
3003
0000
0100
0000
0000
1010
0000
0000
0101
0000
0000
0010
0000
0000
0010
0000
0000
0100
0000
0000
,
1000
0101
0010
1100
0011
1100
0010
0101
,
1010
0101
1010
0100
0100
0100
0010
0101
,
1010
0100
0010
0001
1010
0101
1010
1100
,
0101
0110
1010
0101
0010
0101
0100
0100
,
1001
0010
0010
0101
1010
0100
0010
0100
,
0101
1010
0110
0101
0011
1010
0110
1010
,
1100
0101
0100
0100
0001
0010
1000
0100
,
0100
0010
0001
0010
0100
0010
0010
1001
,
0101
0000
0000
1010
0000
0000
0110
0000
0000
0101
0000
0000
0110
0000
0000
1001
0000
0000
0000
0000
2002
0000
0000
0000
,
0000
0000
0000
0000
0000
0000
0000
0000
0000
0000
0000
0000
0000
0000
0000
0000
0000
0000
0000
0000
0000
0000
0000
3003
,
0000
1000
0000
1010
0000
0101
0000
1010
0000
0110
0000
0011
0000
0110
0000
1100
,
0000
0101
0000
0100
0000
0011
0000
1100
0000
0011
0000
1010
0000
1110
0000
1010
,
0000
0101
0000
0111
0000
1010
0000
1101
0000
0101
0000
1011
0000
0110
0000
0011
,
0000
0110
0000
1001
0000
0111
0000
1110
0000
0111
0000
1010
0000
0111
0000
1010
,
0000
1110
0000
0100
0000
1010
0000
0010
0000
0111
0000
0010
0000
0111
0000
1101
,
0000
1011
0000
1010
0000
0101
0000
0110
0000
0011
0000
0010
0000
0011
0000
0110
,
0000
1010
0000
0101
0000
1110
0000
0111
0000
1010
0000
0101
0000
1110
0000
0100
,
0000
0110
0000
0011
0000
0110
0000
1100
0000
0101
0000
0111
0000
1010
0000
0111
,
0000
1010
0000
1100
0000
0110
0000
0011
0000
1100
0000
0011
0000
1100
0000
0011
,
0000
1100
0011
1100
0011
1100
0011
0000
0000
0000
0000
0000
0100
0000
0100
0000
,
0010
0001
0010
0100
1000
0100
0010
0001
,
0010
1000
0100
0001
0010
0101
1010
0101
,
0010
0100
1000
0100
0001
0010
0001
0001
,
1000
0100
0010
0010
0100
0001
1010
0000
,
0101
0000
2002
3003
0100
0010
0100
0100
,
0010
0100
1000
0010
0100
0001
0010
1001
,
0010
1100
0011
1000
0100
1001
0100
1010
,
0101
0010
0101
1010
0101
1010
0101
1010
,
0100
0100
0010
1010
0010
1001
0101
1001
,
0000
2002
3003
0000
0000
0100
0010
0100
,
1000
0010
0101
0010
1001
0101
0010
0100
,
0011
1100
0010
0101
1010
0101
1010
0100
,
0101
0000
1000
0000
0100
0000
0010
0000
0100
0000
0010
0000
1000
0100
0010
0001
,
0000
0000
0000
0000
0001
0010
0100
0000
1000
0100
0001
0010
0000
1000
0100
0010
,
0000
1010
0000
0100
0000
0101
0000
0010
0000
1000
0100
0010
0001
0010
0100
1000
,
0100
0010
0001
0100
0010
0001
0010
0100
1000
0100
0010
0001
0010
0001
0010
0100
,
1000
0100
1000
0100
0010
0001
0001
0010
0100
1000
0001
0010
0100
1000
0001
0010
,
0100
0000
0000
1000
0000
0000
0001
0000
0000
0010
0000
0000
0100
0000
0000
1000
0001
0000
0010
0000
0100
0000
1000
0000
0001
0000
0010
0000
0100
0000
1000
0000
0001
0000
0010
0000
0100
0000
1000
0000
0001
0000
0010
0000
0100
0000
1000
0000
,
0001
0000
0010
0000
0100
0000
1000
0000
0001
0000
0010
0000
0100
0000
1000
0000
0100
0000
0010
0000
0001
0000
1010
0000
0100
0000
0010
0000
0001
0000
0010
0000
0000
0000
0000
0000
1000
0000
0000
0100
0000
0000
0010
0000
0000
0100
0000
0000
,
1000
0001
0010
0100
0011
0100
0010
0001
1100
0011
0100
1000
0010
0100
1000
0010
,
0100
0010
0001
1100
0010
0100
1000
0110
1000
0100
0010
1100
0011
0100
1000
0100
,
0010
0100
0001
0010
0100
1000
1001
0010
0100
1000
0010
0100
0001
1100
0010
0001
,
0010
1100
0001
0010
1100
0010
0001
0100
0010
1100
0011
0100
1000
0010
0100
1000
,
0010
1100
0011
0100
1000
0011
1100
0010
0001
0010
0100
0011
0100
0010
0001
1100
,
0001
0010
0100
0011
0100
0010
0001
1100
0010
0100
1000
0110
0001
0010
0100
1000
,
0110
1000
0100
0010
0100
0001
0010
0100
0001
0100
0010
0001
0100
0010
1000
0100
,
0010
1000
0010
0100
1000
0010
0100
0010
0001
0100
0010
0100
1000
0100
0010
1001
,
0010
0100
1010
0100
0010
1001
0100
1010
0101
1010
0101
1010
0101
1010
0000
0000
,
0000
0200
0000
0000
0000
0300
0200
0300
0200
0000
0000
0000
0300
0200
0000
0000
,
0000
0300
0200
0000
0000
0000
0000
0300
0200
0000
0300
0200
0000
0000
0000
0300
,
0200
0000
0000
0000
0000
0000
0300
0010
0000
0000
0000
0000
0000
0000
0000
2000
,
0000
3000
0020
0030
0200
0300
0020
0000
0000
0030
2000
0000
3000
0002
0000
0000
,
0003
0200
0000
0000
0000
0000
0000
0000
0000
0000
0000
0300
0000
0000
0020
0000
,
0000
0030
0020
0000
0030
0020
0000
0000
0030
0020
0000
0000
0000
0030
0020
0000
,
0000
0030
0020
0000
0000
0030
0020
0000
0000
0000
0000
0030
0020
0000
0000
0000
,
0000
0030
1000
0000
0000
0000
0000
0000
0000
0000
0002
0000
0003
0020
0030
0200
,
0300
2000
3000
0200
0000
0300
0020
0000
0000
0030
0002
0000
0003
0020
0000
0030
,
0100
1000
0100
0010
0001
0010
0100
1000
0100
0010
0100
1000
0100
1000
0001
0010
,
0100
0010
0001
0010
0100
0010
0001
0010
0100
0010
0001
1010
0100
0010
0001
1010
,
0100
0010
0001
1010
0100
0010
0001
1010
0100
0010
0001
0010
0100
1000
0101
0010
,
0100
1000
0101
0010
0100
1000
0101
0010
0100
1000
0101
0010
0100
1000
0101
0010
,
0100
1000
0101
0010
0100
1000
0101
0010
0100
1000
0100
0010
0001
1001
0010
0100
,
1000
1001
0100
0010
0001
1001
0010
0100
1000
0100
0010
0100
1000
1010
0100
0010
,
0001
0100
0010
1001
0010
0100
1001
0100
0010
1001
0010
0100
1001
0100
0010
1001
,
0010
0100
1001
0100
0010
1001
0010
0100
1000
0100
0010
1001
0100
0010
0001
0010
,
0100
1000
0010
0100
1000
0010
0001
0100
1000
0010
0001
0010
0100
1011
0100
0010
,
1101
0010
0101
1010
0101
1010
0101
0000
0010
0100
1010
0100
0010
0001
0010
0100
,
1000
0101
0010
0100
1000
0100
0010
0001
1010
0100
0010
0001
0010
0101
1000
0100
,
0010
0101
0010
0100
1000
0100
0010
0101
0010
0100
1000
0100
0010
0100
1010
0100
,
0010
0001
1010
0100
0010
0001
0010
0100
0010
0001
0010
0100
0010
0001
0010
0100
,
0010
0001
0010
0100
1000
0100
0010
0100
1000
0100
0010
0100
1000
0100
0010
0100
,
1000
0100
0010
0001
0010
0100
0010
0001
0010
0100
0010
0001
0010
0100
1000
0100
,
0010
0001
0010
0001
0010
0001
0010
0100
1000
0100
1000
0100
1000
0100
1000
0100
,
0010
0100
1000
0001
1000
0001
1000
0001
1000
0100
0010
0001
0010
0100
0001
0100
,
0001
0100
0001
0010
0100
1000
0010
1000
0010
1000
0010
1000
0100
0010
0001
0010
,
0100
0010
1101
0010
1101
0010
1101
0010
1101
0010
1101
0010
1101
0000
0000
0000
,
0000
0000
0000
0100
0000
0010
0000
0000
1000
0000
0000
0010
0000
0100
0000
0000
,
0001
0000
0000
0000
0000
1000
0000
0010
0000
0000
0100
0000
0000
0000
0010
0000
,
0000
0000
0000
0100
0000
0100
0000
0100
0000
0000
0010
0000
0000
0100
0000
0000
,
0010
0000
0000
1000
0000
0000
0000
0001
0000
0000
0000
0000
0000
0000
0000
0000
,
0000
0000
0100
0000
0000
0000
0000
0100
0000
0000
0000
0000
0100
0000
0000
1010
,
0000
1100
0000
0110
0000
0101
0000
1010
0000
0100
0000
0101
0000
0011
0000
1100
,
0000
0101
0000
0111
0000
0101
0000
0111
0000
1010
0000
1110
0000
0110
0000
1001
,
0000
0111
0000
0110
0000
1010
0000
1110
0000
1010
0000
0101
0000
0111
0000
0110
,
0000
1100
0000
0110
0000
0101
0000
0110
0000
1010
0000
0101
0000
0011
0000
1010
,
0000
0111
0000
0010
0000
0111
0000
0110
0000
1010
0000
0101
0000
1110
0000
1011
,
0000
1101
0000
1001
0000
0110
0000
1010
0000
0101
0000
0110
0000
0100
0000
1010
,
0000
0100
0000
1001
0000
0110
0000
0101
0000
1010
0000
0110
0000
0101
0000
0101
,
0000
1010
0000
0100
0000
0101
0000
0110
0000
1100
0000
0101
0000
1101
0000
0111
,
0000
1110
0000
0000
0000
2002
0000
3003
0000
0000
0220
0000
0330
0000
0000
2002
,
3003
0220
0330
0000
0000
0100
0010
0100
1010
0100
0010
1100
0010
0100
1000
0100
,
0010
0001
0010
1100
0010
0001
0010
0100
1000
0100
0010
0100
1000
0100
0010
1001
,
0010
0100
0010
0001
1100
0001
0010
0100
0010
0001
0110
0001
0010
0100
0011
0100
,
0010
0001
1010
0100
0010
0001
0100
0010
0001
0010
0100
0010
1000
0100
0010
0001
,
0100
0010
1000
0100
0001
1000
0001
0010
0100
1001
0010
0100
1001
0010
0100
1001
,
0010
0100
1000
0101
0010
0100
1000
0100
0010
0001
0010
0100
1000
0100
0010
0001
,
0010
0100
0010
0100
0010
0001
0010
0001
1010
0100
0010
0001
0010
0100
1000
0110
,
0001
1010
0100
0010
0001
0010
0100
1000
0110
0001
1000
0100
0010
0101
0010
0100
,
1000
0110
0001
1010
0100
0010
0001
0010
0100
1000
0100
0001
0010
0100
1000
0010
,
1000
0100
0010
0001
0100
0001
0010
0100
0010
0100
1000
0100
0010
0100
1000
0001
,
0010
0100
0010
0001
0100
0010
1001
0010
0100
1000
0101
0010
0001
0010
0001
0010
,
0100
0010
0001
1010
0100
0010
0001
0010
0100
0010
0001
0010
0100
1000
0100
0010
,
0100
1000
0010
0100
0001
0010
1000
0100
0001
0010
0001
1000
0100
0001
0010
1000
,
0100
1000
0001
0010
1000
0100
0001
0010
1000
0100
1001
0100
1000
0010
0101
1000
,
0100
1000
0010
1001
0010
0100
0000
0020
0000
0000
0000
0000
0030
0020
0030
0020
,
0000
0000
0000
0030
0020
0000
0000
0000
0030
0020
0000
0000
0030
0020
0000
0000
,
0030
0020
0000
0000
0000
0000
0030
0020
0000
0000
0000
0000
0030
0000
0100
0000
,
0000
0000
0000
0000
2020
0000
3030
2002
3003
0202
0303
0220
0000
0330
2020
0000
,
3030
2002
0000
0000
3003
0020
0000
0000
0030
0200
0000
0000
0000
0000
0000
0000
,
0300
0000
0000
0000
0020
0000
0000
0030
0020
0000
0030
0020
0000
0000
0030
0020
,
0000
0000
0000
0030
0020
0000
0000
0000
0030
0020
0000
0000
0000
0030
0020
0000
,
0000
0000
0030
0020
0000
0000
0000
0000
0030
0000
0100
0000
0000
0000
0000
0000
,
0000
2020
3030
2002
3003
0202
0303
0220
0330
0020
0000
0000
0030
2020
0000
3030
,
0020
0000
0000
0000
0030
0020
0000
0000
0000
0030
0000
0000
0100
0010
0100
0010
,
0100
1000
0100
0010
0100
1000
0100
0010
0001
0010
0100
1000
0100
0010
0001
0010
,
0100
1000
0100
0010
0001
0010
0100
1000
0100
0010
0001
0010
0001
0010
0001
0010
,
0100
1000
0100
0010
0001
0010
0100
0010
0100
0010
0001
0010
0100
0010
0001
0010
,
1000
0100
0010
0100
1000
0100
0010
0001
0010
0100
1000
0100
0010
0100
0010
0001
,
0010
0100
0010
0001
0100
0010
0001
0100
0001
0100
0001
0100
0001
0010
0100
1000
,
0100
0001
0010
0001
0100
0010
0001
0010
0100
1000
0001
0010
0100
1000
0010
0001
,
0010
0100
1000
0010
0001
0010
0100
1000
0100
0010
1000
0100
1000
0001
0100
0010
,
0100
1000
0010
0100
0010
0100
1000
0001
0010
0100
1000
0100
0010
0100
1000
0100
,
1001
0010
0001
0010
1000
0100
0010
0100
0010
0100
1000
0001
0010
1000
0100
0010
,
0001
1010
0100
0010
0001
0010
0100
0010
0100
0010
0001
0010
0100
1000
0100
1000
,
0100
0010
0001
0010
0100
1001
0100
0010
0100
1001
0100
0010
1001
0010
0100
1000
,
0100
1010
0100
1010
0100
1010
0101
0010
,
1010
0000
0000
0100
0000
0000
0100
0000
0010
0000
0001
0000
0010
0000
0100
0000
1000
0000
0101
0000
0010
0000
0100
0000
,
1010
0100
0010
0001
1001
0010
0100
1000
1001
0100
0010
0100
,
1011
0100
0010
0001
0010
0100
0010
1001
0100
0001
0100
0001
,
0100
0001
0010
0001
0010
0100
1000
0110
1000
0110
1000
0100
,
0010
0100
1000
0100
0010
0100
1001
0100
0010
0100
1000
0100
,
0010
0001
0010
0100
0010
1001
0010
0100
0010
0001
0010
1100
,
0010
0001
1000
0100
0010
0100
1000
0100
0010
0001
1001
0010
,
0100
1000
1001
0100
0010
0001
0010
0100
1000
1000
0100
0010
,
0100
1000
0100
0010
0001
0010
0100
1000
0100
0010
0001
0010
,
0100
0000
1001
0010
0101
0010
0101
1010
0101
1010
0100
0011
1100
0011
1100
0011
,
1100
0011
1100
0000
2222
0000
0000
0000
0000
0000
0000
0000
0000
0000
0000
0000
,
0000
0000
0000
0000
,
0000
0000
0000
0000
0000
0000
0000
0000
0000
0000
0000
3333
;
